<?xml version="1.0" standalone="no"?>
<!DOCTYPE svg PUBLIC "-//W3C//DTD SVG 1.1//EN" "http://www.w3.org/Graphics/SVG/1.1/DTD/svg11.dtd" >
<svg xmlns="http://www.w3.org/2000/svg">
<defs>
  <font id="z4icon" horiz-adv-x="512">
    <font-face font-family="z4icon"
      units-per-em="512" ascent="512"
      descent="0" />
    <missing-glyph horiz-adv-x="0" />
    <glyph glyph-name="24h"
      unicode="&#xEA01;"
      horiz-adv-x="512" d="M183.69 175.29V130.93H16.31A115.25 115.25 0 0 0 32.63 178.59Q46.22 201.09 86.32 238.3100000000001Q118.6 268.4000000000001 125.92 279.1100000000001C132.49 288.9800000000001 135.76 298.7000000000001 135.76 308.3500000000001Q135.76 324.3500000000001 127.19 332.9000000000001T103.49 341.4700000000001Q88.55 341.4700000000001 79.7 332.4700000000001T69.51 302.5700000000001L21.93 307.3300000000001Q26.18 346.7700000000001 48.6 363.9100000000001T104.67 381.0800000000001Q141.57 381.0800000000001 162.67 361.2000000000001T183.75 311.7600000000001A85.9 85.9 0 0 0 177.75 279.7600000000001Q171.75 264.5500000000001 158.63 247.9100000000001Q149.94 236.9100000000001 127.36 216.1200000000001T98.66 188.55A81.52 81.52 0 0 1 88.89 175.29zM296.58 130.93V181H194.58V222.8L302.68 381.07H342.79V223H373.7200000000001V181H342.79V130.88zM296.58 223.02V308.18L239.29 223zM430.1 271.07V219.55Q443.1 234.76 461.17 234.75A39.49 39.49 0 0 0 477.91 231.3A27.3 27.3 0 0 0 489.14 222.51A32 32 0 0 0 494.3000000000001 210.66C495.2300000000001 206.34 495.6900000000001 199.6 495.6900000000001 190.48V130.93H468.82V184.55C468.82 195.2 468.31 201.94 467.28 204.82A13.31 13.31 0 0 1 461.88 211.66A17.37 17.37 0 0 1 452.18 214.2A22.05 22.05 0 0 1 440.24 210.95A18.83 18.83 0 0 1 432.54 201.16Q430.1 194.6 430.1 181.81V130.93H403.23V271.07z" />
    <glyph glyph-name="beginner"
      unicode="&#xEA02;"
      horiz-adv-x="512" d="M354.56 410.88A16.77 16.77 0 0 1 348.5 412A16.49 16.49 0 0 1 338.42 408.65L256 346.53L173.56 408.65A16.38 16.38 0 0 1 163.5 412A16.77 16.77 0 0 1 157.44 410.88C152 408.81 148.5 404.18 148.5 399.0900000000001V218.36C148.5 205.7 149.26 200.98 157.81 192.62L245.4 103.35A16.46 16.46 0 0 1 255.47 100A2.19 2.19 0 0 1 255.98 100C256.15 100 256.32 100 256.48 100A16.49 16.49 0 0 1 266.56 103.35L354.19 192.5800000000001C362.24 200.48 363.5 206.5800000000001 363.5 218.3200000000001V399.0900000000001C363.5 404.18 360 408.81 354.56 410.88zM180.16 209.8C176.74 213.19 176.74 214.2700000000001 176.74 218.28V371.07L252.9 316.32V146.23L252.9 135.47S183.57 206.4 180.16 209.8z" />
    <glyph glyph-name="building"
      unicode="&#xEA03;"
      horiz-adv-x="512" d="M131 391H313.694C313.694 301 313.694 211 313.694 121H131C131 211 131 301 131 391zM188.693 352.429H159.847V333.1430000000001H188.693V352.429zM188.693 294.5710000000001H159.847V275.286H188.693V294.5710000000001zM159.847 236.714H188.693V217.429H159.847V236.714zM188.693 178.857H159.847V159.571H188.693V178.857zM207.924 352.429H236.77V333.1430000000001H207.924V352.429zM236.77 294.5710000000001H207.924V275.286H236.77V294.5710000000001zM207.924 236.714H236.77V217.429H207.924V236.714zM236.77 178.857H207.924V159.571H236.77V178.857zM256.001 352.429H284.848V333.1430000000001H256.001V352.429zM284.848 294.5710000000001H256.001V275.286H284.848V294.5710000000001zM256.001 236.714H284.848V217.429H256.001V236.714zM284.848 178.857H256.001V159.571H284.848V178.857zM332.925 313.857H381.003C381.002 249.5710000000001 381.003 185.286 381.003 121H332.925V159.571H352.156V178.857H332.925V207.786H352.156V227.0710000000001H332.925V256H352.156V275.286H332.925V313.857z" />
    <glyph glyph-name="calculate"
      unicode="&#xEA04;"
      horiz-adv-x="512" d="M268.602 343.9C264.375 388.284 226.991 423 181.5 423C133.175 423 94 383.825 94 335.5C94 287.175 133.175 248 181.5 248C197.582 248 212.651 252.339 225.6 259.909V98.541C225.6 93.714 229.514 89.8 234.341 89.8H409.359C414.186 89.8 418.1 93.714 418.1 98.541V335.159C418.1 339.986 414.186 343.9 409.359 343.9H268.602zM253.658 285.993L253.659 285.995C253.653 286.002 253.646 286.009 253.64 286.017C252.517 287.49 251.85 289.331 251.85 291.328V308.852C251.85 313.6910000000001 255.767 317.6140000000001 260.6 317.6140000000001H383.1C387.932 317.6140000000001 391.85 313.6910000000001 391.85 308.852V291.328C391.85 286.4890000000001 387.932 282.5660000000001 383.1 282.5660000000001H260.6C257.772 282.5660000000001 255.258 283.909 253.658 285.993zM198.425 353H224.947V336.5H189.947V325.75H224.947V309.25H189.947V283H172.447V309.25H137.447V325.75H172.447V336.5H137.447V353H163.969L136.747 388L159.322 388L181.197 359.875L203.072 388H225.647L198.425 353zM260.6 256.279C255.767 256.279 251.85 252.3570000000001 251.85 247.517V229.993C251.85 225.154 255.767 221.231 260.6 221.231H278.1C282.932 221.231 286.85 225.154 286.85 229.993V247.517C286.85 252.3570000000001 282.932 256.279 278.1 256.279H260.6zM260.6 203.707C255.767 203.707 251.85 199.784 251.85 194.945V177.421C251.85 172.582 255.767 168.659 260.6 168.659H278.1C282.932 168.659 286.85 172.582 286.85 177.421V194.945C286.85 199.784 282.932 203.707 278.1 203.707H260.6zM260.6 151.135C255.767 151.135 251.85 147.212 251.85 142.373V124.848C251.85 120.009 255.767 116.086 260.6 116.086H278.1C282.932 116.086 286.85 120.009 286.85 124.848V142.373C286.85 147.212 282.932 151.135 278.1 151.135H260.6zM313.1 256.279C308.267 256.279 304.35 252.3570000000001 304.35 247.517V229.993C304.35 225.154 308.267 221.231 313.1 221.231H330.6C335.432 221.231 339.35 225.154 339.35 229.993V247.517C339.35 252.3570000000001 335.432 256.279 330.6 256.279H313.1zM313.1 203.707C308.267 203.707 304.35 199.784 304.35 194.945V177.421C304.35 172.582 308.267 168.659 313.1 168.659H330.6C335.432 168.659 339.35 172.582 339.35 177.421V194.945C339.35 199.784 335.432 203.707 330.6 203.707H313.1zM313.1 151.135C308.267 151.135 304.35 147.212 304.35 142.373V124.848C304.35 120.009 308.267 116.086 313.1 116.086H330.6C335.432 116.086 339.35 120.009 339.35 124.848V142.373C339.35 147.212 335.432 151.135 330.6 151.135H313.1zM365.6 256.279C360.767 256.279 356.85 252.3570000000001 356.85 247.517V229.993C356.85 225.154 360.767 221.231 365.6 221.231H383.1C387.932 221.231 391.85 225.154 391.85 229.993V247.517C391.85 252.3570000000001 387.932 256.279 383.1 256.279H365.6zM365.6 203.707C360.767 203.707 356.85 199.784 356.85 194.945V124.848C356.85 120.009 360.767 116.086 365.6 116.086H383.1C387.932 116.086 391.85 120.009 391.85 124.848V194.945C391.85 199.784 387.932 203.707 383.1 203.707H365.6z" />
    <glyph glyph-name="calendar-december"
      unicode="&#xEA05;"
      horiz-adv-x="512" d="M168.75 396C163.917 396 160 392.082 160 387.25V369.75C160 364.918 163.917 361 168.75 361C173.582 361 177.5 364.918 177.5 369.75V387.25C177.5 392.082 173.582 396 168.75 396zM220.9 273.5H210.4V240.6H160V230.1H210.4V186H160V175.5H210.4V142.6H220.9V175.5H291.6V142.6H302.1V175.5H352.5V186H302.1V230.1H352.5V240.6H302.1V273.5H291.6V240.6H220.9V273.5zM291.6 186H220.9V230.1H291.6V186zM186.25 369.75V378.5H326.25V369.75C326.25 360.0850000000001 334.085 352.25 343.75 352.25C353.415 352.25 361.25 360.0850000000001 361.25 369.75V378.5H378.75C383.582 378.5 387.5 374.583 387.5 369.75V124.75C387.5 119.918 383.582 116 378.75 116H133.75C128.918 116 125 119.918 125 124.75V369.75C125 374.583 128.918 378.5 133.75 378.5H151.25V369.75C151.25 360.0850000000001 159.085 352.25 168.75 352.25C178.415 352.25 186.25 360.0850000000001 186.25 369.75zM377 291H135.5V124.75H377V291zM255.86 319.459C254.245 316.152 253.386 312.499 253.284 308.5H291.467V318.151H267.127C267.819 319.305 268.665 320.318 269.664 321.189C270.69 322.0610000000001 272.574 323.471 275.317 325.419L279.7 328.534C283.392 331.148 286.045 333.52 287.6600000000001 335.647C290.121 338.852 291.351 342.517 291.351 346.645C291.351 352.028 289.608 356.347 286.122 359.603C282.636 362.884 277.944 364.525 272.048 364.525C264.589 364.525 259.398 361.743 256.475 356.1810000000001C254.937 353.2580000000001 254.078 349.426 253.899 344.683H264.55C264.678 347.8110000000001 265.089 350.092 265.781 351.528C266.986 354.014 269.254 355.2580000000001 272.587 355.2580000000001C275.022 355.2580000000001 276.893 354.476 278.201 352.9120000000001C279.508 351.348 280.162 349.387 280.162 347.029C280.162 344.132 279.021 341.466 276.74 339.031C275.253 337.467 271.984 334.878 266.9340000000001 331.264C261.115 327.111 257.424 323.176 255.86 319.459zM217.96 354.4120000000001V346.952H231.072V308.5H242.3V364.256H233.187C233.187 363.769 233.046 363.025 232.764 362.025C232.277 360.3590000000001 231.559 359.026 230.611 358.026C229.227 356.565 227.432 355.591 225.228 355.1040000000001C223.843 354.796 221.421 354.5660000000001 217.96 354.4120000000001zM335 387.25C335 392.082 338.917 396 343.75 396C348.582 396 352.5 392.082 352.5 387.25V369.75C352.5 364.918 348.582 361 343.75 361C338.917 361 335 364.918 335 369.75V387.25z" />
    <glyph glyph-name="change"
      unicode="&#xEA06;"
      horiz-adv-x="512" d="M415.4700000000001 261.1C411.4700000000001 263.48 405.9500000000001 265.36 399.6600000000001 267.5C389.49 270.9600000000001 377.25 275.13 365.87 283.27C362.01 286.03 359.36 288.1 356.18 290.5800000000001S352.25 297.35 356.18 299.8C363 304 367 313.87 369.29 323C371.23 324 374.05 327.05 376.29 334.69C379.8300000000001 347.12 376.2200000000001 349.17 373.04 348.94C373.04 349.19 373.0900000000001 349.44 373.11 349.69A30 30 0 0 1 374.24 354.12C379.73 386.9600000000001 363.5300000000001 388.12 363.5300000000001 388.12S360.87 393.27 353.7700000000001 397.2100000000001A32.56 32.56 0 0 1 333.7700000000001 401.4100000000001A28.73 28.73 0 0 1 325.7700000000001 399.92A35.38 35.38 0 0 1 317.0000000000001 395.43A46.12 46.12 0 0 1 308.0000000000001 387.9600000000001A36.46 36.46 0 0 1 298.2300000000001 370.85C296.8500000000001 365.5900000000001 297.1800000000001 360.05 298.2900000000001 354.12A37.22 37.22 0 0 1 299.4200000000001 349.6700000000001L299.4800000000001 348.9300000000001C296.3100000000001 349.12 292.7000000000001 347.12 296.2300000000001 334.6900000000001C298.3900000000001 326.9400000000001 301.2300000000001 323.86 303.2300000000001 322.9700000000001C305.5500000000001 313.8100000000001 309.5600000000001 303.9700000000001 316.3300000000001 299.76C320.2600000000001 297.3100000000001 319.3300000000001 293.17 316.3300000000001 290.54S310.4900000000001 285.99 306.6400000000001 283.23C295.2500000000001 275.0900000000001 283.0200000000001 270.92 272.8500000000001 267.4600000000001C266.5600000000001 265.3200000000001 261.0600000000001 263.4600000000001 257.0400000000001 261.06S249.7900000000001 254.6600000000001 249.7900000000001 249.24A23.14 23.14 0 0 1 251.3400000000001 241.4100000000001S266.5800000000001 192.65 335.2600000000001 192.65S421.2600000000001 241.4100000000001 421.2600000000001 241.4100000000001A18.81 18.81 0 0 1 422.8100000000001 249.24C422.7200000000001 254.7 419.4100000000001 258.77 415.4700000000001 261.1zM328 234.46L319.1 259.7L311.9000000000001 278.4L319.1 288.03L330.87 273.42L326 260.91L331.28 256.38zM353.4100000000001 259.7L344.48 234.46L341.2100000000001 256.38L346.49 260.91L341.64 273.42L353.44 288L360.64 278.37zM241.61 357.15V329.15L291.49 369L241.61 409V385.62C186.54 380.26 184.25 315.88 184.25 315.88S195.94 353.4 241.61 357.15zM255.08 171.41C251.08 173.79 245.56 175.67 239.27 177.81C229.1 181.27 216.87 185.44 205.48 193.58C201.63 196.34 198.97 198.41 195.79 200.89C192.79 203.52 191.86 207.66 195.79 210.11C202.57 214.3300000000001 206.58 224.18 208.9 233.35C210.85 234.3 213.6700000000001 237.35 215.9 245.04C219.44 257.4700000000001 215.8300000000001 259.52 212.66 259.29L212.72 260.04A28.65 28.65 0 0 1 213.85 264.48C219.34 297.31 203.14 298.48 203.14 298.48S200.48 303.63 193.38 307.5700000000001A32.56 32.56 0 0 1 173.38 311.77A28.8 28.8 0 0 1 165.38 310.28A35.38 35.38 0 0 1 156.61 305.79A46.12 46.12 0 0 1 147.61 298.32A36.45 36.45 0 0 1 137.85 281.21C136.46 275.95 136.79 270.41 137.9 264.49A38.19 38.19 0 0 1 139.03 260.04C139.03 259.79 139.03 259.54 139.1 259.29C135.92 259.48 132.31 257.48 135.85 245.05C138.01 237.3 140.85 234.2200000000001 142.85 233.33C145.17 224.17 149.19 214.33 155.95 210.12C159.88 207.67 159 203.53 155.95 200.9C152.77 198.42 150.12 196.35 146.26 193.59C134.88 185.45 122.64 181.28 112.47 177.82C106.18 175.68 100.68 173.82 96.66 171.42S89.41 165.0200000000001 89.41 159.6A23.14 23.14 0 0 1 90.96 151.7700000000001S106.07 103 174.75 103S260.75 151.76 260.75 151.76A18.81 18.81 0 0 1 262.3 159.59C262.33 165 259 169.08 255.08 171.41zM167.65 144.7700000000001L158.71 170L151.52 188.71L158.71 198.33L170.48 183.72L165.63 171.22L170.92 166.68zM193.06 170L184.12 144.76L180.85 166.68L186.14 171.22L181.29 183.72L193.06 198.3300000000001L200.25 188.71z" />
    <glyph glyph-name="chart-cash"
      unicode="&#xEA07;"
      horiz-adv-x="512" d="M235.269 339.077C249.607 339.077 261.231 350.7 261.231 365.038C261.231 379.377 249.607 391 235.269 391C220.931 391 209.308 379.377 209.308 365.038C209.308 359.747 210.891 354.825 213.609 350.721L187.279 324.391C183.175 327.1090000000001 178.253 328.692 172.962 328.692C158.623 328.692 147 317.069 147 302.731C147 288.3930000000001 158.623 276.769 172.962 276.769C178.253 276.769 183.175 278.352 187.279 281.0710000000001L215.061 253.289C204.917 239.514 198.923 222.496 198.923 204.077C198.923 158.195 236.118 121 282 121C327.882 121 365.077 158.195 365.077 204.077C365.077 249.959 327.882 287.154 282 287.154C258.2850000000001 287.154 236.891 277.217 221.755 261.281L194.622 288.414C197.34 292.5180000000001 198.923 297.439 198.923 302.731C198.923 308.022 197.34 312.944 194.622 317.048L220.952 343.378C225.056 340.66 229.978 339.077 235.269 339.077zM322.987 219.073H297.822L323.651 252.064H302.2320000000001L281.476 225.553L260.7200000000001 252.064H239.3L265.129 219.073H239.964V203.52H273.173V193.387H239.964V177.835H273.173V153.091H289.778V177.835H322.987V193.387H289.778V203.52H322.987V219.073z" />
    <glyph glyph-name="check"
      unicode="&#xEA08;"
      horiz-adv-x="512" d="M256 412A156 156 0 1 1 412 256A156 156 0 0 1 256 412zM225.77 183.23L147.63 257.1L172.37 283.26L225.77 232.77L327.63 329.08L352.37 302.92z" />
    <glyph glyph-name="consumption-tax"
      unicode="&#xEA09;"
      horiz-adv-x="512" d="M264.25 224.875C264.25 236.956 274.044 246.75 286.125 246.75C298.206 246.75 308 236.956 308 224.875V216.125C308 204.044 298.206 194.25 286.125 194.25C274.044 194.25 264.25 204.044 264.25 216.125V224.875zM281.75 224.875C281.75 227.291 283.709 229.25 286.125 229.25C288.541 229.25 290.5 227.291 290.5 224.875V216.125C290.5 213.709 288.541 211.75 286.125 211.75C283.709 211.75 281.75 213.709 281.75 216.125V224.875zM347.375 194.25C335.294 194.25 325.5 184.456 325.5 172.375V163.625C325.5 151.544 335.294 141.75 347.375 141.75C359.456 141.75 369.25 151.544 369.25 163.625V172.375C369.25 184.456 359.456 194.25 347.375 194.25zM347.375 176.75C344.959 176.75 343 174.791 343 172.375V163.625C343 161.209 344.959 159.25 347.375 159.25C349.791 159.25 351.75 161.209 351.75 163.625V172.375C351.75 174.791 349.791 176.75 347.375 176.75zM343 246.75L273 141.75H290.5L360.5 246.75H343zM273 325.5C273 313.0560000000001 270.402 301.218 265.719 290.5H395.5C405.165 290.5 413 282.665 413 273V115.5C413 105.835 405.165 98 395.5 98H238C228.335 98 220.5 105.835 220.5 115.5V245.281C209.782 240.598 197.944 238 185.5 238C137.175 238 98 277.175 98 325.5C98 373.825 137.175 413 185.5 413C233.825 413 273 373.825 273 325.5zM246.4 273C241.761 273 238 269.2390000000001 238 264.6V123.9C238 119.261 241.761 115.5 246.4 115.5H387.1C391.739 115.5 395.5 119.261 395.5 123.9V264.6C395.5 269.2390000000001 391.739 273 387.1 273H246.4zM229.122 343.068H201.926L229.122 378.034H207.268L185.415 349.9360000000001L163.561 378.034H141.707L168.903 343.068H141.707V325.5850000000001H176.673V316.844H141.707V299.361H176.673V273.136H194.156V299.361H229.122V316.844H194.156V325.5850000000001H229.122V343.068z" />
    <glyph glyph-name="declare"
      unicode="&#xEA0A;"
      horiz-adv-x="512" d="M161.5 391H350.5C356.299 391 361 386.305 361 380.514V192.46C361 188.291 359.341 184.293 356.391 181.347L299.658 124.699C296.7080000000001 121.753 292.7080000000001 120.1 288.54 120.1H161.5C155.701 120.1 151 124.795 151 130.586V380.514C151 386.305 155.701 391 161.5 391zM282.25 130.6H288.54C289.929 130.6 291.26 131.151 292.239 132.13L348.971 188.777C349.951 189.755 350.5 191.08 350.5 192.46V198.748H295.375C286.625 198.748 282.25 194.379 282.25 185.64V130.6zM186 337.8H326V347.6H186V337.8zM326 294.4H186V304.2H326V294.4zM186 251H326V260.8H186V251zM247.25 207.6H186V217.4H247.25V207.6zM186 174H247.25V164.2H186V174z" />
    <glyph glyph-name="input"
      unicode="&#xEA0B;"
      horiz-adv-x="512" d="M220 316H116V308H220V316zM116 299H186V290H116V299zM116 281H202V273H116V281zM353.942 265.081C361.892 270.053 366.601 281.6620000000001 369.324 292.461C371.6070000000001 293.572 374.912 297.23 377.491 306.223C381.637 320.86 377.407 323.2820000000001 373.683 323.005C373.709 323.299 373.734 323.593 373.759 323.8880000000001C374.336 325.6570000000001 374.805 327.386 375.0830000000001 329.115C381.527 367.79 362.522 369.16 362.522 369.16C362.522 369.16 359.398 375.225 351.067 379.856C345.5350000000001 383.182 337.79 385.725 327.5710000000001 384.812C324.252 384.682 321.128 384.03 318.199 383.052C314.424 381.747 310.975 379.921 307.916 377.769C304.076 375.356 300.496 372.356 297.307 368.964C292.295 363.812 287.804 357.16 285.852 348.812C284.225 342.616 284.615 336.094 285.917 329.115C286.25 327.389 286.679 325.615 287.243 323.874C287.267 323.583 287.291 323.2920000000001 287.317 323.001C283.593 323.2200000000001 279.363 320.86 283.509 306.223C286.04 297.102 289.389 293.475 291.686 292.421C294.411 281.6330000000001 299.118 270.046 307.058 265.081C311.665 262.2 310.626 257.329 307.058 254.227C303.327 251.302 300.211 248.865 295.686 245.617C285.188 238.079 274.072 233.433 264 229.808V351H80V220H150V203H124V194H220V203H194V220H238.359C238.068 219.838 237.783 219.675 237.504 219.509C232.881 216.764 229 211.963 229 205.582C229 194.493 230.821 127 230.821 127H430.179C430.179 127 432 194.493 432 205.582C432 211.963 428.1190000000001 216.764 423.496 219.509C418.779 222.31 412.326 224.517 404.947 227.041C393.017 231.122 378.665 236.03 365.314 245.617C360.789 248.865 357.673 251.302 353.942 254.227C350.374 257.329 349.335 262.2 353.942 265.081zM350.736 217.855L340.252 188.132L336.417 213.945L342.617 219.287L336.93 234.02L350.736 251.225L359.175 239.887L350.736 217.855zM310.445 217.855L320.93 188.132L324.765 213.945L318.565 219.287L324.252 234.02L310.445 251.225L302.007 239.887L310.445 217.855zM246 334H98V238H246V334z" />
    <glyph glyph-name="login"
      unicode="&#xEA0C;"
      horiz-adv-x="512" d="M160.857 311H192.571V327.471C192.571 362.557 220.969 391 256 391C291.031 391 319.429 362.557 319.429 327.471V311H351.143C359.901 311 367 303.892 367 295.12V136.882C367 128.111 359.901 121 351.143 121H160.857C152.099 121 145 128.111 145 136.882V295.12C145 303.892 152.099 311 160.857 311zM287.714 327.471V311H224.286V327.471C224.286 345.014 238.485 359.235 256 359.235C273.515 359.235 287.714 345.014 287.714 327.471zM287.714 240.118C287.714 229.427 282.442 219.97 274.359 214.213L287.714 160.706H224.286L237.641 214.213C229.558 219.97 224.286 229.427 224.286 240.118C224.286 257.661 238.485 271.882 256 271.882C273.515 271.882 287.714 257.661 287.714 240.118z" />
    <glyph glyph-name="logout"
      unicode="&#xEA0D;"
      horiz-adv-x="512" d="M224.167 342.6670000000001C224.167 360.156 238.344 374.333 255.833 374.333C273.322 374.333 287.5 360.156 287.5 342.6670000000001H319.167C319.167 377.645 290.811 406 255.833 406C220.855 406 192.5 377.645 192.5 342.6670000000001V311H160.833C152.089 311 145 303.911 145 295.1670000000001V136.833C145 128.089 152.089 121 160.833 121H350.8330000000001C359.578 121 366.667 128.089 366.667 136.833V295.1670000000001C366.667 303.911 359.578 311 350.8330000000001 311H224.167V342.6670000000001zM287.5 239.75C287.5 229.093 282.235 219.665 274.164 213.925L287.5 160.583H224.167L237.502 213.925C229.432 219.665 224.167 229.093 224.167 239.75C224.167 257.2390000000001 238.344 271.4170000000001 255.833 271.4170000000001C273.322 271.4170000000001 287.5 257.2390000000001 287.5 239.75z" />
    <glyph glyph-name="mail"
      unicode="&#xEA0E;"
      horiz-adv-x="512" d="M146 346C140.477 346 136 341.523 136 336V318.601L243.02 240.394C250.751 234.7440000000001 261.249 234.7440000000001 268.98 240.394L376 318.601V336C376 341.523 371.523 346 366 346H146zM376 296.784L278.421 225.476C265.066 215.717 246.934 215.717 233.579 225.476L136 296.784V176C136 170.477 140.477 166 146 166H366C371.523 166 376 170.477 376 176V296.784z" />
    <glyph glyph-name="man"
      unicode="&#xEA0F;"
      horiz-adv-x="512" d="M224.667 233.588C213.407 243.603 206.548 257.8 204.727 269.723C201.97 269.8930000000001 198.294 273.898 194.368 288.299C188.938 307.812 194.702 310.624 199.547 310.198C198.628 312.839 197.96 315.5660000000001 197.459 318.207C195.788 327.325 195.287 335.846 197.375 343.9410000000001C199.881 354.848 205.646 363.539 212.078 370.271C216.172 374.702 220.767 378.621 225.696 381.774C229.622 384.586 234.05 386.972 238.895 388.676C242.654 389.954 246.664 390.806 250.925 390.977H260.075C264.336 390.806 268.346 389.954 272.105 388.676C276.95 386.972 281.378 384.586 285.304 381.774C290.233 378.621 294.828 374.702 298.9220000000001 370.271C305.354 363.539 311.1190000000001 354.848 313.625 343.9410000000001C315.713 335.846 315.212 327.325 313.541 318.207C313.04 315.5660000000001 312.372 312.839 311.453 310.198C316.298 310.624 322.062 307.812 316.632 288.299C312.706 273.898 309.03 269.8930000000001 306.273 269.723C304.452 257.801 297.593 243.604 286.335 233.589C284.133 230.516 284.5 225.725 286.1840000000001 221.877C292.065 218.652 327.2 199.566 353.909 189.213C379.399 179.759 379.275 169.11 378.927 139.015C378.865 133.654 378.796 127.676 378.863 120.977H132.137C132.204 127.676 132.135 133.654 132.073 139.016C131.725 169.11 131.601 179.759 157.091 189.213C183.802 199.566 218.939 218.654 224.817 221.877C226.501 225.725 226.867 230.515 224.667 233.588z" />
    <glyph glyph-name="meet"
      unicode="&#xEA10;"
      horiz-adv-x="512" d="M420.801 281.141C427.788 285.488 431.926 295.639 434.319 305.082C436.325 306.054 439.23 309.252 441.497 317.116C445.14 329.915 441.423 332.033 438.15 331.79C438.173 332.0470000000001 438.195 332.304 438.216 332.562C438.724 334.11 439.136 335.622 439.38 337.1330000000001C445.043 370.951 428.341 372.149 428.341 372.149C428.341 372.149 425.596 377.453 418.275 381.502C413.413 384.41 406.606 386.634 397.626 385.836C394.709 385.722 391.964 385.152 389.39 384.296C386.072 383.156 383.041 381.559 380.352 379.677C376.978 377.567 373.832 374.943 371.029 371.978C366.625 367.473 362.678 361.656 360.962 354.356C359.532 348.938 359.876 343.236 361.02 337.1330000000001C361.313 335.624 361.689 334.072 362.185 332.551C362.206 332.296 362.228 332.041 362.25 331.7870000000001C358.977 331.978 355.26 329.915 358.903 317.116C361.128 309.14 364.0710000000001 305.969 366.09 305.0470000000001C368.484 295.6140000000001 372.621 285.482 379.599 281.141C383.647 278.621 382.734 274.362 379.599 271.65C376.32 269.092 373.581 266.961 369.605 264.121C357.871 255.738 345.259 251.4460000000001 334.774 247.878C328.29 245.671 322.6190000000001 243.741 318.473 241.292C314.411 238.891 311 234.693 311 229.113C311 228.961 311.001 228.794 311.003 228.612L305.215 188.976L263.747 221.53C261.366 223.253 258.272 221.882 256.063 220.903C255.967 220.861 255.873 220.819 255.78 220.778C255.716 220.75 255.653 220.722 255.591 220.695C255.392 221.624 255.293 222.763 255.193 223.913C255.025 225.837 254.855 227.791 254.209 228.836C250.43 234.95 243.693 244.178 239.362 241.157C238.587 240.637 239.021 238.774 239.492 236.754C239.89 235.0470000000001 240.315 233.229 240.058 232.012C225.61 241.901 213.786 247.274 208.323 239.136C202.531 230.485 204.955 221.812 218.615 208.415C220.09 207.499 221.789 206.248 223.613 204.905C228.228 201.507 233.652 197.514 238.331 196.82C238.338 196.293 238.182 195.561 238.009 194.744L237.999 194.696C237.556 192.618 236.82 189.154 238.498 187.939L279.683 151.935L281.61 151H198.857C198.685 156.18 198.13 169.276 197.553 182.916L197.553 182.919C196.773 201.35 195.951 220.774 195.973 223C196.167 242.225 195.727 251.5 179.645 257.499C160.586 264.928 140.188 276.959 140.188 276.959C140.188 276.959 136.1 262.541 116.664 262.541H114.336C94.9003 262.541 90.8124 276.959 90.8124 276.959C90.8124 276.959 70.4135 264.928 51.3546 257.499C35.2725 251.5 34.8324 242.225 35.0267 223L33.2673 178.676C32.7579 166.631 32.2971 155.64 32.1431 151H0V125H512V151H484.992C485.863 164.652 489.4 220.611 489.4 229.113C489.4 234.693 485.989 238.891 481.927 241.292C477.781 243.741 472.111 245.671 465.625 247.878C455.141 251.4460000000001 442.528 255.738 430.795 264.121C426.819 266.961 424.08 269.092 420.801 271.65C417.666 274.362 416.753 278.621 420.801 281.141zM417.984 239.8450000000001L408.77 213.855L405.4 236.426L410.848 241.098L405.851 253.98L417.984 269.024L425.4 259.11L417.984 239.8450000000001zM382.576 239.8450000000001L391.789 213.855L395.1600000000001 236.426L389.711 241.098L394.709 253.98L382.576 269.024L375.1600000000001 259.11L382.576 239.8450000000001zM106.201 276.291C92.4244 281.2630000000001 84.0929 295.395 82.4048 306.511C80.6079 306.623 78.2119 309.249 75.6526 318.689C72.1131 331.481 75.8704 333.324 79.0287 333.045C78.4297 334.776 77.9941 336.564 77.6674 338.296C76.5783 344.273 76.2516 349.8590000000001 77.6129 355.165C79.2465 362.315 83.0038 368.0130000000001 87.1968 372.426C89.865 375.331 92.86 377.9 96.0728 379.967C98.6321 381.8110000000001 101.518 383.375 104.676 384.492C107.127 385.33 109.741 385.8880000000001 112.518 386H118.482C121.259 385.8880000000001 123.873 385.33 126.323 384.492C129.482 383.375 132.368 381.8110000000001 134.927 379.967C138.14 377.9 141.135 375.331 143.803 372.426C147.996 368.0130000000001 151.753 362.315 153.387 355.165C154.748 349.8590000000001 154.422 344.273 153.333 338.296C153.006 336.564 152.57 334.776 151.971 333.045C155.13 333.324 158.887 331.481 155.347 318.689C152.788 309.249 150.392 306.623 148.595 306.511C146.907 295.395 138.576 281.2630000000001 124.799 276.291C120.578 274.7680000000001 110.422 274.7680000000001 106.201 276.291z" />
    <glyph glyph-name="question"
      unicode="&#xEA11;"
      horiz-adv-x="512" d="M343.94 370.8300000000001Q320.84 405.2200000000001 271.78 410.9600000000001Q227.05 416.69 191 390.9Q152 359.37 152 310.65H201.07Q208.29 356.5 247.25 365.1Q283.33 372.27 302.0900000000001 343.61Q310.7500000000001 329.27 306.42 312.0800000000001Q303.5200000000001 297.75 290.54 287.7200000000001L254.4600000000001 261.9300000000001Q228.4600000000001 244.7200000000001 228.4600000000001 207.47V184.55H281.85V213.21Q281.85 226.1 296.2800000000001 236.13L316.49 250.46Q351.13 274.82 356.9 302.05Q367 336.44 343.94 370.8300000000001zM223.97 132.91A32.94 32.91 0 0 1 289.85 132.91A32.94 32.91 0 0 1 223.97 132.91" />
    <glyph glyph-name="register"
      unicode="&#xEA12;"
      horiz-adv-x="512" d="M277.055 226.891C275.312 228.631 272.185 227.773 271.27 225.304L257.377 187.816C256.363 185.08 258.829 182.619 261.572 183.631L299.139 197.494C301.613 198.407 302.473 201.528 300.73 203.267L277.055 226.891zM375.0590000000001 269.866V150.118C375.0590000000001 139.559 366.481 131 355.9 131H173.158C162.578 131 154 139.559 154 150.118V361.882C154 372.4410000000001 162.578 381 173.158 381H355.9C366.481 381 375.0590000000001 372.4410000000001 375.0590000000001 361.882V332.2580000000001L406.6190000000001 363.751C408.027 365.156 410.217 365.247 411.512 363.954L438.085 337.438C439.38 336.146 439.289 333.9600000000001 437.882 332.555L375.0590000000001 269.866zM183.475 160.412V351.588H345.584V302.846L284.304 241.6960000000001C282.896 240.292 282.805 238.106 284.1 236.814L310.673 210.297C311.968 209.005 314.159 209.096 315.566 210.5L345.584 240.455V160.412H183.475z" />
    <glyph glyph-name="return"
      unicode="&#xEA13;"
      horiz-adv-x="512" d="M221 317.75V388.33L98.46 264.81L221 141.3V213.66C308.52 213.66 369.8 185.4400000000001 413.55 123.66C396 211.88 343.5 300.12 221 317.75z" />
    <glyph glyph-name="speed"
      unicode="&#xEA14;"
      horiz-adv-x="512" d="M245.28 219.37A16.53 16.53 0 0 1 246.28 193.37A16.75 16.75 0 0 1 269.6 197L332.8400000000001 282.81L326.4500000000001 288.75zM256 372.39A156.06 156.06 0 0 1 116.81 145.87A11.65 11.65 0 0 1 127.28 139.61H384.7200000000001A11.65 11.65 0 0 1 395.1900000000001 145.87A156.06 156.06 0 0 1 256 372.39zM377.58 162.77H134.42A132.44 132.44 0 0 0 123.16 216.39C123.16 217.61 123.16 218.83 123.16 220.05H153A11.58 11.58 0 0 1 153 243.2H125.86A132.93 132.93 0 0 0 244.42 348.74V322.42A11.58 11.58 0 1 1 267.58 322.42V348.74A132.93 132.93 0 0 0 386.14 243.2H359A11.58 11.58 0 0 1 359 220H388.81C388.81 218.78 388.81 217.56 388.81 216.34A132.44 132.44 0 0 0 377.58 162.77z" />
    <glyph glyph-name="support"
      unicode="&#xEA15;"
      horiz-adv-x="512" d="M285.2 259.5900000000001L335.9 310.3300000000001A38.29 38.29 0 0 1 285.2 367.54A38.29 38.29 0 0 1 234.5 310.3300000000001zM249.2 349.76A17.43 17.43 0 0 0 273.87 349.76L285.17 338.45L296.48 349.76A17.45 17.45 0 1 0 321.1400000000001 325.07L285.1400000000001 289.07L249.1400000000001 325.07A17.47 17.47 0 0 0 249.23 349.76zM412.42 221.32A23.28 23.28 0 0 1 401 235.73H401C393.67 239.73 384.59 240.35 376.13 237.8300000000001H376.13L300.55 215.6200000000001C296.7200000000001 222 290 227 281.64 230.48L281.57 230.48L208 258.6A40 40 0 0 1 193.73 261.24H169.12A18.31 18.31 0 0 1 151.89 273.11H116.79A18.14 18.14 0 0 1 98.5 255.1600000000001V172A18.14 18.14 0 0 1 116.79 154H151.89A18.23 18.23 0 0 1 169.89 168.84H170.11L262.48 137.76L263.18 137.55L263.35 137.55A52 52 0 0 1 295.5300000000001 140.46L295.61 140.46L395 187.06H395C408.5 193 416.54 207.41 412.42 221.32zM149.33 174.71H119.33V252.49H149.33zM386.49 205.9L386.4100000000001 205.9L287.0700000000001 159.38A30.9 30.9 0 0 0 268.6 157.61L175.24 189L173.58 189.54H170.19V240.62H189.87A40 40 0 0 0 204.14 238L273.79 211.4A25.35 25.35 0 0 0 280.79 207.21A6.82 6.82 0 0 0 282.61 204.85A2.75 2.75 0 0 0 282.74 203.04C282.07 201.14 280.51 199.77 278.08 198.9A14.44 14.44 0 0 0 271.32 198.19L209.8 215.52L203.9 195.75L266 178.23L266.46 178.11L266.6 178.11A35 35 0 0 1 286.5 180A27.45 27.45 0 0 1 301.77 194.47L382 218.06H382C385.6 219.13 388.84 218.71 390.69 217.7A2.58 2.58 0 0 0 392.15 216.07V216.07L392.15 215.93L392.2 215.75L392.25 215.57C393.12 213.12 391.9100000000001 208.24 386.49 205.9z" />
    <glyph glyph-name="talk"
      unicode="&#xEA16;"
      horiz-adv-x="512" d="M317.526 247.187C375.778 247.187 423 280.724 423 322.094C423 363.463 375.778 397 317.526 397C259.274 397 212.052 363.463 212.052 322.094C212.052 303.007 222.105 285.587 238.655 272.3590000000001L231.829 247.188L266.734 256.429C281.8 250.539 299.112 247.187 317.526 247.187zM162.739 185.333C148.278 190.529 139.532 205.3 137.76 216.919C135.874 217.035 133.359 219.78 130.673 229.647C126.957 243.017 130.901 244.943 134.217 244.651C133.588 246.461 133.13 248.33 132.788 250.14C131.644 256.387 131.301 262.225 132.73 267.772C134.445 275.245 138.389 281.2 142.79 285.813C145.591 288.849 148.735 291.534 152.107 293.694C154.794 295.621 157.823 297.256 161.139 298.424C163.711 299.299 166.455 299.8830000000001 169.37 300H175.63C178.545 299.8830000000001 181.289 299.299 183.861 298.424C187.177 297.256 190.206 295.621 192.893 293.694C196.265 291.534 199.409 288.849 202.21 285.813C206.611 281.2 210.555 275.245 212.27 267.772C213.699 262.225 213.356 256.387 212.212 250.14C211.87 248.33 211.412 246.461 210.783 244.651C214.099 244.943 218.043 243.017 214.327 229.647C211.641 219.78 209.126 217.035 207.24 216.919C205.468 205.3 196.722 190.529 182.261 185.333C177.831 183.741 167.169 183.741 162.739 185.333zM146.586 186.031C146.586 186.031 150.877 170.961 171.278 170.961H173.722C194.123 170.961 198.414 186.031 198.414 186.031C198.414 186.031 219.827 173.456 239.833 165.691C257.301 159.203 257.188 149.048 256.949 127.499C256.907 123.701 256.861 119.548 256.906 115H88.0939C88.1394 119.548 88.0933 123.701 88.0511 127.499C87.8119 149.048 87.6991 159.203 105.167 165.691C125.173 173.456 146.586 186.031 146.586 186.031z" />
    <glyph glyph-name="tel"
      unicode="&#xEA17;"
      horiz-adv-x="512" d="M363.174 168.947C360.1070000000001 162.234 353.223 156.401 342.504 151.444C331.792 146.48 322.274 144 313.962 144C311.633 144 309.139 144.181 306.515 144.55C303.894 144.916 301.682 145.272 299.86 145.638C298.037 146.004 295.621 146.661 292.634 147.608C289.647 148.561 287.493 149.286 286.187 149.793C284.872 150.306 282.459 151.223 278.9580000000001 152.521C275.4580000000001 153.844 273.27 154.643 272.404 154.931C248.493 163.694 225.118 179.475 202.297 202.291C179.476 225.123 163.693 248.485 154.931 272.398C154.642 273.278 153.843 275.466 152.534 278.967C151.225 282.467 150.303 284.867 149.792 286.179C149.296 287.491 148.564 289.639 147.618 292.63C146.661 295.63 146.004 298.03 145.641 299.852C145.282 301.675 144.92 303.903 144.55 306.524C144.181 309.149 144 311.626 144 313.958C144 322.272 146.494 331.79 151.444 342.5130000000001C156.404 353.223 162.233 360.12 168.945 363.174C176.671 366.386 184.034 368 191.034 368C192.639 368 193.8 367.842 194.535 367.554C195.273 367.265 196.461 365.953 198.139 363.62C199.817 361.288 201.639 358.337 203.606 354.756C205.586 351.179 207.512 347.718 209.419 344.362C211.301 341.019 213.124 337.7 214.882 334.411C216.624 331.132 217.725 329.048 218.158 328.185C218.591 327.45 219.547 326.074 221.007 324.027C222.457 321.983 223.561 320.161 224.279 318.56C225.014 316.949 225.383 315.428 225.383 313.958C225.383 311.77 223.886 309.1090000000001 220.9 305.974C217.896 302.843 214.62 299.956 211.053 297.3350000000001C207.475 294.714 204.197 291.895 201.206 288.918C198.223 285.9310000000001 196.726 283.477 196.726 281.591C196.726 280.567 196.978 279.363 197.485 277.973C197.995 276.584 198.468 275.456 198.918 274.5900000000001C199.351 273.711 200.045 272.466 200.985 270.865C201.928 269.254 202.562 268.243 202.851 267.7970000000001C210.868 253.365 220.084 240.9340000000001 230.525 230.5C240.942 220.079 253.369 210.849 267.816 202.824C268.253 202.536 269.276 201.918 270.884 200.962C272.488 200.018 273.733 199.341 274.596 198.891C275.472 198.458 276.599 197.988 277.989 197.474C279.378 196.968 280.576 196.706 281.61 196.706C283.932 196.706 287.144 199.112 291.231 203.925C295.3090000000001 208.738 299.467 213.52 303.699 218.256C307.917 222.992 311.344 225.365 313.978 225.365C315.432 225.365 316.965 224.992 318.576 224.274C320.177 223.542 321.999 222.451 324.046 220.981C326.077 219.528 327.466 218.582 328.198 218.135L339.786 211.809C347.508 207.714 353.9580000000001 204.113 359.154 200.975C364.318 197.83 367.137 195.692 367.57 194.524C367.859 193.793 368 192.628 368 191.024C368 184.023 366.386 176.656 363.174 168.947" />
    <glyph glyph-name="user"
      unicode="&#xEA18;"
      horiz-adv-x="512" d="M330.65 318.44A74.78 74.78 0 0 0 256 243.79C214.87 243.79 181.35 275.79 181.35 318.4400000000001A74.65 74.65 0 0 0 330.65 318.4400000000001zM118.92 135.68C118.92 184.41 175.28 228.5800000000001 256 228.5800000000001S393.0800000000001 184.41 393.0800000000001 135.6800000000001V118.9200000000001H118.92z" />
    <glyph glyph-name="visit"
      unicode="&#xEA19;"
      horiz-adv-x="512" d="M295.007 200.486V155H269.325C268.876 136.726 268.368 118 268.368 118H89.6324C89.6324 118 88 178.168 88 188.053C88 193.742 91.4796 198.022 95.6239 200.469C99.853 202.966 105.638 204.934 112.254 207.184C122.95 210.821 135.817 215.197 147.788 223.744C151.844 226.64 154.638 228.812 157.983 231.42C161.182 234.185 162.113 238.527 157.983 241.0950000000001C150.864 245.522 146.644 255.852 144.202 265.468C142.142 266.408 139.139 269.641 136.87 277.773C133.153 290.8210000000001 136.946 292.925 140.284 292.73C140.261 292.9890000000001 140.239 293.248 140.217 293.5080000000001C139.712 295.06 139.328 296.641 139.029 298.18C137.862 304.401 137.512 310.216 138.971 315.7390000000001C140.721 323.1810000000001 144.747 329.111 149.24 333.7050000000001C152.1 336.728 155.309 339.402 158.752 341.554C161.494 343.472 164.587 345.1 167.971 346.2630000000001C170.597 347.135 173.398 347.716 176.374 347.833C185.535 348.647 192.479 346.379 197.439 343.414C204.908 339.286 207.709 333.879 207.709 333.879C207.709 333.879 224.748 332.658 218.971 298.18C218.722 296.639 218.301 295.098 217.784 293.52C217.762 293.257 217.739 292.995 217.716 292.733C221.055 292.98 224.847 290.8210000000001 221.13 277.773C218.817 269.755 215.854 266.495 213.807 265.504C211.366 255.877 207.144 245.527 200.017 241.0950000000001C195.887 238.527 196.818 234.185 200.017 231.42C203.362 228.812 206.156 226.64 210.212 223.744C220.959 216.071 232.428 211.76 242.4 208.327V400H417.4V155H364.801V200.486H295.007zM394.239 377.493H364.801V348.897H394.239V377.493zM394.239 335.9220000000001H364.801V307.318H394.239V335.9220000000001zM394.239 294.343H364.801V265.755H394.239V294.343zM394.239 252.78H364.801V224.169H394.239V252.78zM344.635 377.493H315.189V348.897H344.635V377.493zM344.635 335.9220000000001H315.189V307.318H344.635V335.9220000000001zM344.635 294.343H315.189V265.755H344.635V294.343zM344.635 252.78H315.189V224.169H344.635V252.78zM295.015 377.493H265.577V348.897H295.015V377.493zM295.015 335.9220000000001H265.577V307.318H295.015V335.9220000000001zM295.015 294.343H265.577V265.755H295.015V294.343zM295.015 252.78H265.577V224.169H295.015V252.78zM197.143 198.995L187.743 172.497L184.305 195.509L189.863 200.272L184.765 213.405L197.143 228.743L204.709 218.635L197.143 198.995zM161.02 198.995L170.42 172.497L173.858 195.509L168.3 200.272L173.398 213.405L161.02 228.743L153.454 218.635L161.02 198.995z" />
    <glyph glyph-name="zeirishi"
      unicode="&#xEA1A;"
      horiz-adv-x="512" d="M298.824 295.853C295.8330000000001 284.049 290.6600000000001 271.36 281.927 265.926C276.866 262.776 278.007 257.452 281.927 254.063C286.025 250.865 289.448 248.202 294.419 244.651C309.086 234.1720000000001 324.851 228.807 337.957 224.347C346.063 221.589 353.152 219.176 358.334 216.115C363.412 213.114 367.675 207.867 367.675 200.891C367.675 188.771 365.675 115 365.675 115H146.675C146.675 115 144.675 188.771 144.675 200.891C144.675 207.867 148.939 213.114 154.016 216.115C159.198 219.176 166.287 221.589 174.393 224.347C187.499 228.807 203.264 234.1720000000001 217.932 244.651C222.902 248.202 226.325 250.865 230.423 254.063C234.343 257.452 235.484 262.776 230.423 265.926C221.701 271.353 216.53 284.0180000000001 213.537 295.809C211.014 296.961 207.335 300.926 204.554 310.895C199.999 326.894 204.647 329.473 208.738 329.2340000000001C208.709 329.551 208.682 329.8690000000001 208.656 330.188C208.036 332.091 207.566 334.03 207.199 335.9170000000001C205.769 343.544 205.34 350.673 207.128 357.445C209.273 366.57 214.206 373.841 219.711 379.472C223.215 383.179 227.147 386.459 231.365 389.096C234.726 391.449 238.515 393.445 242.662 394.87C245.879 395.94 249.311 396.652 252.958 396.795C264.183 397.793 272.691 395.0130000000001 278.768 391.377C287.92 386.3160000000001 291.352 379.6860000000001 291.352 379.6860000000001C291.352 379.6860000000001 312.229 378.189 305.151 335.9170000000001C304.8450000000001 334.027 304.33 332.137 303.695 330.203C303.669 329.88 303.641 329.559 303.613 329.238C307.704 329.541 312.35 326.894 307.796 310.895C304.962 301.065 301.331 297.068 298.824 295.853zM266.888 181.818L278.405 214.307L287.675 238.388L278.405 250.78L263.238 231.975L269.485 215.872L262.675 210.033L266.888 181.818zM245.662 181.818L234.145 214.307L224.875 238.388L234.145 250.78L249.311 231.975L243.064 215.872L249.875 210.033L245.662 181.818z" />
    <glyph glyph-name="zeirishi-short"
      unicode="&#xEA1B;"
      horiz-adv-x="512" d="M305.1070000000001 274.788C301.67 261.227 295.727 246.647 285.693 240.404C279.879 236.786 281.19 230.669 285.693 226.774C290.402 223.1 294.335 220.04 300.046 215.961C316.897 203.921 335.011 197.757 350.068 192.633C359.382 189.464 367.526 186.692 373.48 183.174C379.314 179.727 384.213 173.698 384.213 165.684C384.213 151.759 381.915 121 381.915 121H130.298C130.298 121 128 151.759 128 165.684C128 173.698 132.898 179.727 138.733 183.174C144.686 186.692 152.831 189.463 162.144 192.633C177.202 197.757 195.315 203.921 212.167 215.961C217.878 220.04 221.811 223.1 226.519 226.774C231.023 230.669 232.334 236.786 226.519 240.404C216.498 246.64 210.557 261.1910000000001 207.118 274.738C204.219 276.0610000000001 199.992 280.617 196.797 292.0710000000001C191.564 310.453 196.904 313.416 201.604 313.141C201.571 313.506 201.54 313.871 201.51 314.238C200.798 316.423 200.257 318.651 199.837 320.819C198.194 329.583 197.701 337.773 199.754 345.554C202.219 356.038 207.887 364.392 214.212 370.862C218.237 375.121 222.755 378.889 227.602 381.919C231.463 384.622 235.816 386.915 240.581 388.553C244.277 389.782 248.22 390.601 252.41 390.764C265.307 391.911 275.082 388.717 282.064 384.54C292.579 378.725 296.522 371.108 296.522 371.108C296.522 371.108 320.509 369.3880000000001 312.376 320.819C312.025 318.648 311.433 316.477 310.704 314.254C310.674 313.884 310.642 313.514 310.609 313.146C315.3090000000001 313.4940000000001 320.648 310.452 315.416 292.0710000000001C312.1600000000001 280.777 307.988 276.184 305.1070000000001 274.788zM268.414 143.77L281.647 181.097L292.298 208.765L281.647 223.003L264.222 201.397L271.399 182.896L263.574 176.186L268.414 143.77zM244.027 143.77L230.795 181.097L220.144 208.765L230.795 223.003L248.22 201.397L241.043 182.896L248.867 176.186L244.027 143.77z" />
    <glyph glyph-name="zero"
      unicode="&#xEA1C;"
      horiz-adv-x="512" d="M207.16 295L192.69 273.41A52.82 52.82 0 0 1 188.86 264.95A45.75 45.75 0 0 1 185.03 273.41L170.84 295H149L171.06 261.1H152.55V247.84H178.86V240.64H152.55V227.38H178.86V211H198.79V227.38H225.45V240.64H198.79V247.84H225.45V261.1H206.66L229 295zM333.18 326.13Q319 344 294 344T254.94 326.36Q238 305 238 256.29Q238 206.69 253.41 187.29T294 168Q319.06 168 333.06 185.64Q350 207 350 255.94T333.18 326.13zM312 212.91Q309.4 203.04 304.71 199.16A17.1 17.1 0 0 0 283.29 199.16Q278.72 202.91 275.65 214.16T272.59 255.9000000000001Q272.59 286.23 276 299.0500000000001Q278.6 308.9200000000001 283.29 312.6900000000001A16.42 16.42 0 0 0 294 316.61A16 16 0 0 0 304.59 312.73Q309.3 308.9700000000001 312.35 297.5600000000001T315.41 255.9400000000001Q315.4100000000001 225.61 312 212.91zM256 412A156 156 0 1 1 412 256A156 156 0 0 1 256 412zM256 123.16A132.84 132.84 0 1 0 388.84 256A132.83 132.83 0 0 0 256 123.16z" />
    <glyph glyph-name="zero-price"
      unicode="&#xEA1D;"
      horiz-adv-x="512" d="M188.26 377L168.7 336.11A91.38 91.38 0 0 1 163.52 322.5800000000001A79.39 79.39 0 0 1 158.33 336.11L139.13 377H109.55L139.4 316.42H114.33V295.2100000000001H150V283.7H114.33V262.49H150V236.27H177V262.49H213.1V283.7H177V295.23H213.1V316.44H187.6L217.84 377zM378 357.8Q357.54 383.73 321.17 383.74T264.5200000000001 358.15Q240 327.0800000000001 240 256.43Q240 184.43 262.36 156.3300000000001T321.25 128.2600000000001Q357.56 128.2600000000001 377.9 153.85Q402.46 184.91 402.46 255.85Q402.45 327.07 378 357.8zM347.33 193.43C344.82 183.88 341.33 177.24 336.75 173.55A24.1 24.1 0 0 0 321.21 168A23.85 23.85 0 0 0 305.77 173.46Q299.03 178.9 294.59 195.39T290.15 255.9Q290.15 299.9 295.09 318.55Q298.86 332.88 305.67 338.43A24.1 24.1 0 0 0 321.21 344A23.5 23.5 0 0 0 336.65 338.44Q343.39 332.92 347.83 316.44T352.27 255.93Q352.27 211.87 347.33 193.43z" />
  </font>
</defs>
</svg>
